audiophile voices Features the impressive talents of Eva Cassidy, Alison Krauss, Jheena Lodwick, and several other well-known Audiophile female vocalists. 3-Best Audiophile Voices (CD NEW) Label: Premium Records Format: CD Release Date: 17 Jan 2012 No. VA - Best Audiophile Voices I-VII (2003-2011) 7CD; VA - Best Audiophile Voices - Collection (1993-2014) VA - Best Audiophile Male Voices (2009) Lossless;Find product information, ratings and reviews for Various - Best About Press Copyright Contact us Creators Advertise Developers Terms Privacy Policy & Safety How YouTube works Test new features Press Copyright Contact us Creators Best Audiophile Voices VI [CD] Genre. ly/2HU06UN1. 2L 5 2xHD 5 Absolute Sound 22 Analogue 8 Audiophile Artist 18 Audiophile Choice 7 Chesky Records 10 Collection 19 Concord Records 3 DSD Audio 18 FIM 6 Focal JMlab 5 Greatest Voices 34 Groove Note 8 Grooveyard 6 Group Disc 9 Hi-Res Audio 14 High Endition 1 High Octave Music 5 In-akustik 12 Instrumental 10 Linn Records 8 Listen free to Emi Fujita – Jazz Audiophile Voices (Blu-Spec CD). The crossover point is now lower, the slope angles have been changed and the tonal balance has been altered. 04. Audiophile Review Magazine High-End Audio Equipment Reviews . We discover, develop, and create synergy between artists on multiple platforms, Audiophile Plus pushes the boundaries of pop culture into the future. Audiophile Voices - Voices Of Love (LP) The very first and best from Evosound’s Audiophile Female Vocals – Voices Of Love series Voices Of Love Volume I is now lovingly engraved in 180 gram vinyl by the professional makers in Germany. No matter what genre of audiophile music floats your boat, there’s a song out there for you that can introduce you to the wonderful world of superior sound quality. What A Wonderful World Vocals: Eva Cassidy 05. Columns Best Audiophile Voices VII CD. Dave's True Story - Marisa 09. You've Got A Friend / Stacey Kent. 4 (2005)(FLAC)【Tarck List】 01. Back Issue $5. E. : PR27857 Official Release by: 2004 Premium Records Marketed & . You Belong To Me - Janet Seidel 07. ly/2HU06UN Website http://bit. With her rich contralto voice and smooth, soulful phrasing, Jean is truly a jazz singer's, jazz si If you want a pair of audiophile bookshelf speakers designed to provide the highest level performance at an extremely reasonable price, Bowers & Wilkins’ 606 S2 is the clear winner. Category: Vinyl LP. 03. 80 + $8. Tracklist: Title: Audiophile Voices 5 Released: 2006 Style: Jazz, Folk RAR Size: 298 Mb Tracklist: 01. Was. Free shipping . Audiophile Female Vocals - Voices of Love (HQCD) Chlara - In A Different Light (CD) Julienne Taylor - Live at the Lyric (Blu-ray) John Ford Coley - Very Best of (HQCD) Find great deals on eBay for best audiophile voices. Whether you’re new to vinyl, or you want to upgrade Category: Audiophile Chinese Voices 李梦瑶 – 唱给你听 – Li Meng Yao – Transform 2020 LECD [Wav+cue] 13/02/2021 admin Audiophile Chinese Voices , Chinese Music Leave a comment Hi-Q MP3 Voice Recorder (Pro) Audiophile. rar >> DOWNLOAD (Mirror #1) 1bcc772621 Find album reviews, stream songs, credits and award information for Best Audiophile Voices, Vol. What A Wonderful World - Eva Cassidy 02. va---greatest-audiophile-voices-vol-1-4-2011-2012-flac - Downloader. But as a reminder, “fine” coming from an audiophile means an average customer will probably be impressed. … Ideal Room Size Dimensions and Ratios for Audiophile… Dennis Foley discusses the idea of ideal room dimensions --… Can Power Cords Have an Effect on an Audio… Steven Stone looks at two divergent views on power cords Red Hot Audiophile 2010 album released by Master Music producer in 2010. The selection of the 12 tracks on this album will bring the listener an eclectic mix of familiar and evocative songs. io Audiophile Music Written by Mark Smotroff • August 27, 2020 • 6:00 am • Audiophile Music, Audiophile. Audiophile Voices - Supreme Stereo Sound Series No 5 74. What a wonderful world-Eva Cassidy 03. 99. $49. Saskia Bruin - The Look Of Love02. 02. Tim Tamashiro-The Way You Look Tonight 04. 00 Powering the Living Voice IBX-R3 speakers was no exception–the resulting sound was as warm, smooth-as-velvet, and highly engaging on an emotional level as I’ve yet heard from the little First Watt. We help you find your next great audiobook. 4 [CD] at Best Buy. The 3rd collection in the Best Audiophile Voices series brings you the impressive vocal talents of Alison Krauss, Sara K. You Light Up My Life / Jazz Audiophile Voices - 3:08 09. 61 MB (Vocal Jazz) VA - Best Audiophile Voices VII - 2011, FLAC (tracks+. If you take sound quality seriously, check out the best high-fidelity headphones and earphones we've reviewed. NEW. A female voice so sweet and warm that will make you fall in love in a second. 4 (JVCXR7960). Sennheiser HD650. Firstly, these wired headphones comprise large 40 mm drivers for thumping bass. A New Perspective Donald Byrd. Jazz at the Pawnshop - (1976) - CD2 80. The disc and book go over every aspect of getting the most out of stereo system reproduction, from a single voice to the most complex and dynamic musical passages. Best Vocal of Male Singers – Audiophile Male Voice released in 2007. Best Audiophile Voices – 18 Famale Shake The World (2008) MF Records. 155 likes. . Killing Me Softly With His Song Cheryl Bentyne. Best Audiophile Voices I (2015) 01. Cominne May - Fly Away 04. 0. 5-2007-Flac 530. With her rich contralto voice and smooth, soulful phrasing, Jean is truly a jazz singer's, jazz si Best Audiophile Voices IV CD. more_vert. Discover more music, concerts, videos, and pictures with the largest catalogue online at Last. exe 782. No jargon, no cult of personality, no arrogant insiders, no engineering degrees needed, no nonsense. Sofia Petersson - Can't Take My Eyes Off You 08. The recording was very well done and the selections emphasize ballads to bring out the best in the artists. Audiophile headphones & accessories. The Way You Look Tonight - Tim Tamashiro 4. 68 + $10. $ 25. Livingstone Taylor-Isn't She Lovely 08. Sunny - Noon 08. 90. BEST AUDIOPHILE VOICES SELECTION K2HD - CD NEW. . Also for the first time in this series several male artists are also present on this CD including Tim Tamashiro, Hayati Kafe and Al Somma. flac" WAVE TRACK 01 AUDIO TITLE "Vincent" PERFORMER "Sara K. Jardin D' Hiver 03. It is the desire to connect with each recorded moment in time on the deepest emotional level. มีแต่คุณ (Just you) โอ๋ ชุติมา 3. Even my mom and my dad commented me that I listen to great music and that the song list BEST AUDIOPHILE VOICES 2. 68MB. 10 Best Audiophile Voices Selection of 2017. BEST AUDIOPHILE VOICES 2. It wouldn't Have Made Any Difference - Alison Krauss 04. This co-production of Premium Records and Top2 Music in Japan, JVC XRCD and Combak Corporation is the stuff that brightens our audiophile days. Best Audiophile Voices IV brings together the top audiophile voices as Salena Jones, Jheena Lodwick, Livingston TaylorSusannah McCorkle audiophilemusic. Mời các bạn cùng thưởng thức. Sarah Morrau - Vincent03. This is the fourth cut from the album Audiophile Voices 2. Features the impressive talents of Eva Cassidy, Alison Krauss, Stacey Kent, Jheena Lodwick, Salena Jones and several other well-known Audiophile female vocalists. Be the first to write a customer review. Diamond Voices Of The Fifties Vol. Vanishing Points / Audio Adventure. Label: Blue CD Records LGAWG-91022-19. Tracks (12) The fourth collection in the Best Audiophile Voices series brings you the impressive vocal talents of Stacey Kent, Jheena Lodwick, Salena Jones, Jean Frye Sidwell and many more well-known female audiophile artists. rút gọn. Share. S. Jazz at the Pawnshop - (1976) - CD1 79. I present to you the most dynamic acoustic sound experience on Spotify. 1993 - Best Audiophile Voices Vol. Halie Loren : BEST AUDIOPHILE COLLECTION XRCD. The Audiophile Voice. Kingsound KS-H3 . The selection of tracks on this album will bring the listener an eclectic mix of familiar and evocative songs. Also for the first time in this series several male artists are also present on this CD including: Tim Tamashiro, Hayati Kafe and Al Somma. $49. Sylvia Hotel - Cheryl Wheeler 09. Audiophile Experience. You might be in for some sticker shock, but The album “Absolute Audiophile Voices” is a great album for audiophile fans, performed by many famous singers as Carol Kidd, Mary Black, Randy Vanwarmer, Lobo … released in 2011, this album contains 17 songs selected. Yes we have ready stock for this product. 02. After you do business with The Audiophile Voice, please leave a review to help other people and improve TIDAL is the first global music streaming service with high fidelity sound, hi-def video quality, along with expertly curated playlists and original content — making it a trusted source for music and culture. Now $14. Eva Cassidy - Fields Of Gold (4:44) 03. 90 SGD . Diamonds and Rust - Astor Fong 06. Both have options that cost a little bit more than the standard package to consume your audio in higher bitrates, and mobile users will have to be vigilant at keeping an eye on their bandwidth usage. Jean Morel Conducting The Paris Conservatoire Orchestra. I have tried many resonance damping or tuning devices, from the totally obscure to the most well-known, with varying degrees of success. NEW. Best Audiophile Voices Selection 2006【Tarck List】 01. Therefore I want to take things to a complete new level with you: Every day – for the upcoming 60 days – you can receive a new audiophile album recommendation from me. " Adcom GFP-750 Preamplifier "This preamplifier is an outstanding piece of audio gear. 88 + $3. Box 43537, Upper Montclair, NJ 07043. This is the last digital album in the immortal three-CD set of the audiophile world, Red Hot Audiophile 2010 includes 14 jazz vocal songs selected from the best songs, t he album is made on SACD high quality format Includes Eva Cassidy, Salena Jones, Noon, Mary Ann Hurst, and more! This XRCD2 from the Premium label contains more than a dozen wonderful tracks from female vocalists famous for their music. Terez Montcalm - L. Audiophile Male Voices - Greatest Vocal of Stockfisch RecordsLIKE & SHARE IF IT'S AWESOME Subscribe https://bit. 5 album was released in 2007 and featured titles like Get Me Through December, You've Got a Friend and Bridge Over Troubled Water from Natalie MacMaster, Stacey Kent and Eva Cassidy. Album introduces the best male ginggers in the audiophile world like Willie Nelson, Friends Of Carlotta, Al Somma, John Michael Montgomery, Jason Donovan, Bob Dylan, Mike Silver, David Roth, Ivan Rebroff, Steve Strauss, Livingston taylor, Mighty sam mcclain. When I Dream - Carol Kidd 05. $56. Audiophile PLUS. 7 (2011)(FLAC)【Tarck List】01. Voices. 5 3: The second collection of Best Audiophile Voices features an assortment of such beloved Audiophile female vocalists as Eva Cassidy, Etta Jones, Jean Frye Sidwell, Jheena Lodwick and a few others. "Overall, this is a fine audiophile-grade monitor that looks good, too. Focal Utopia. 32,,MB,,,,. Best Audiophile Voices III CD. Close To You 7 Best Audiophile Voices 5. . 01. A collection of sultry female vocalists featuring a repertoire of sophisticated styles. Sony MDR-Z1R . We specialize in rare, high quality pressings. A collection of sultry female vocalists featuring a repertoire of sophisticated styles. VA. Sennheiser HD660s. , Emi Fujita, Cheryl Bentyne Phát hành năm 2004 bởi Premium Records . Jane Duboc-Lady Jane 03. All did something, some good, some bad, but rarely what was promised or proposed! The Marigo V. V, No. The selection of tracks in the album will bring to the listener an eclectic mix of familiar and evocative songs. io where you can enjoy music and buy your favorite album. TAS 2003 - The Red Hot Audiophile 2010 album released by Master Music producer in 2010. 1. Released on the high resolution audiophile format known as XRCD, this CD is playable on all CD players. 2K. When I Fall In Love / Jazz Audiophile Voices - 4:39 10. USD$55. Tania Maria - Cry Me A River 05. BEST AUDIOPHILE VOICES III - XRCD. fm. 00 Shop Best Audiophile Voices, Vol. Better The Best Integrated Amplifiers [Editor’s note: Welcome to the Part-Time Audiophile Buyers Guide for 2021! This year we decided to mix it up a little by breaking up the Buyers Guide into sections, which makes it a far more manageable read. Versatile MP3 recorder with auto-backup to Dropbox and Google Drive. File Type Create Time File Size Seeders Leechers Updated; Audio: 2020-08-22: 389. You Light Up My Life - Salena Jones View credits, reviews, tracks and shop for the 2007 Vinyl release of "Best Audiophile Voices" on Discogs. . However, he does call Sony’s WF-1000XM3 earbuds sound quality “great” and thinks 10 Best Audiophile Voices Selection of 2017. Eva Cassidy-What a Wonderful World. Perhaps Love - Jheena Lodwick 06. Andrea Zonn - Better Be Home Soon (4:27) Still, in the streaming audiophile world, it has become king thanks to hi-res streaming support. Audiophile. Salena Jones-You Don't Bring Me Flowers 02. Feb 16, 2013 - Explore Pro Integration's board "Audiophile Horns", followed by 1126 people on Pinterest. " INDEX 01 00:00:00 TRACK 02 AUDIO TITLE "The Rose" PERFORMER "Emi Fujita" INDEX 01 05:25:51 TRACK 03 AUDIO TITLE "Fly Away" PERFORMER "Cominne May" INDEX 01 09:00:60 TRACK 04 AUDIO TITLE Rare & Collectible Vinyl Records - Serving customers around the world for more than 25 years Premium Records proudly presents Audiophile Voices, Volume 4. Vincent - Sara K (Live) Premium Records proudly presents Best Audiophile Voices, Volume 6--a collection of sultry female vocalists featuring a repertoire of sophisticated styles. Title: Jazz Audiophile Voices. audio flac lossless size 1. Picture Information. Find album reviews, stream songs, credits and award information for Best Audiophile Voices IV - Various Artists on AllMusic - 2005 Also available on JVC XRCD2 Best Audiophile Oldies (JVCXR7956), Best Audiophile Voices Vol. No jargon, No cult of personality, No arrogant insiders, No engineering degree needed, No nonsense, Just good reading. This album contains covers of such well-known hits as You Light Up My Life, Ain't No Sunshine, What a Wonderful World and many more. Tweet. Entry-level and “audiophile” aren’t typically used in the same sentence, but U-Turn’s Orbit Special is a great exception to that rule. The Legacies will be my last speakers. 1 –Salena Jones You Don’t Bring Me Flowers 2 –Jane Duboc Lady Jane 3 –Tim Tamashiro The Way You Look. Dots are, in that respect, exceptional. Various - Best Audiophile Voices - Selection | Desperado,What A Wonderful World,What The World Needs Now Is Love,Perhaps Love,Fly Away,You Dont Bring Me Flowers,Fields Of Gold,Marisa,Over The Rainbow,Better Be Home Soon,If,I Left My Heart On San Francisco,When I Dream,When You Say Nothing At All,The flac mp3 album free This is the fourth cut from the album Audiophile Voices 2. Join us today for the ultimate listening experience! Title: Jazz Audiophile Voices Released: 2009 Style: Jazz, Vocal Jazz RAR Size: 894 Mb Tracklist: CD 1 1. cue) Tracklist: SLEEP AWHILE - Benedicte Torget (3:25) BETTER BE HOME SOON - Andrea Zorn (4:27) BEAUTIFUL GIRLS - Jessica Gall (3:47) MAYBE I'M AMAZED - Lydia Gray (3:05) Volume 8, Issue 3 Welcome to the audiophile voice online!the audiophile voice claims to be the world's best Hi-Fi magazine " by audiophiles for audiophiles". Reviews. The true of feeling of women the Voices of Love 2. Puttin' On The Ritz - Mimi Lo 08. Find more Cassidy, Eva / Alison Krauss / Jheena Lodwick / Salena Jones / Others - Best Audiophile Voices vinyl records and LPs. Monoprice Monolith. Features the impressive talents of Eva Cassidy, Alison Krauss, Jheena Lodwick, and several other well-known Audiophile female vocalists. 77 gb genre album various artists best audiophile voices collection 1993 2011 flac . SKU: 3366715278316. February 2012, 8:42 Various / Absolute Audiophile Voices Used drive : PIONEER DVD-RW DVR-118L Adapter: 4 ID: 0 Best. Best Audiophile Chinese Voices Vol. 01. Released on the high-resolution audiophile format known as XRCD, this CD is playable on all CD players. Close. For All We Know - Hayati Kafe 11. 500 Miles - Noon 03. More beautiful voices. A Child Is Born - Jheena Lodwick 07. 2 CD NEUF. Vincent Sara K. Stacey Kent - What The World Needs Now Is Love (4:10) 5. 03:36 Reaso The 2nd collection of Best Audiophile Voices features an assortment of such beloved Audiophile female vocalists as Alison Krauss, Eva Cassidy, Claire Martin, Etta Jones, Salena Jones, Jean Frye Sidwell and a few others. Format: CD, Year: 2004, Label: Premium Records, Barcode: 3365715278524, Length: 55:01 Evosound Audiophile Female Vocal -- Voices of Love 2 (HQCD) NEW Voices of Love 2 - More touching songs. Each Pink Floyd album is a work of art, both musically and technically. You Don't Bring Me Flowers - Salena Jones 2. Patricia O' Callaghan - I Believe In You (4:12) 6. Vote. Breaking Up Is Hard To Do 02. A corporation duly registered with the Securities and Exchange Commission (SEC Registration Number 96980). 56 shipping . Best Of Jazz Audiophile Voices (2CD) (2011) FLAC 1. A classic for every audiophile. The Fi/Analogue Productions Sampler 75. part1. 40+ years tinkering with hifi cables + accessories has taught us a lot of things. 21 shipping . The selection of tracks in the album will bring to the listener an eclectic mix of familiar and evocative songs. Audiophile Voices - Collection - (ASIAN COLLECTORS EDITION) - 3xCD NEW. TITLE "Best Audiophile Voices Selection" FILE "Premium Records 01 Emi Fujita , Desperado. Title greatest audiophile voices year 2011 2012. Naim Label Sampler 1 76. Thể loại: Jazz, Blues, Mainstream Jazz. 4. A collection of sultry female vocalists featuring a repertoire of sophisticated styles. Breaking Silence - Janis Ian 78. The Audiophile Voice. No jargon, no cult of personality, no arrogant insiders, no engineering degrees needed, no nonsense. Exact Audio Copy V1. Also noteworthy, is Tony O'Malley's rousing rendition of "My way" - not available on his album. , Salena Jones, Jean Frye Sidwell and many more. ทาสเทคโนโลยี (Techno slave) - สวีทนุช 2. Sylvia Hotel - Cheryl Wheeler 10. Audiophile Bossa Voices : 15 Brazilian Love Tracks CD 24bit / 192 Khz Remastering. This was released in Singapore by the Premium label. 2 (JVCXR7840), and Best Audiophile Voices Vol. $51. When I Dream - Carol Kidd 06. Find the Top Audiophile Voices with the MSN Buying Guides >> Compare Products and Brands by Quality, Popularity and Pricing >> Updated 2021 Best Audiophile Voices V (2015) 01. They are jazz, folk songs, and pure voice. Too Young To Go Steady - Sara Gazarek 10. Best Audiophile Oldies is a high quality 180g import vinyl compilation from the Premium label containing 14 wonderful hits from the bygone era of the 1950s and 1960s by such timeless artists as Nat King Cole ("When I Fall In Love"), Connie Francis ("Stupid Cupid"), Paul Anka ("Diana"), The Everly Brothers ("Let It Be Me"), The Shirelles ("Will You Love Me Tomorrow") and Andy Williams ("Autumn Leaves") among many more! Gatefold 180g vinyl LP. WebSite: Album Preview. Karrin Allyson - Too Young To Go Steady 06. Dindi This is the fourth cut from the album Audiophile Voices 2. The 30 Best Audiophile Headphones of 2021 . Stream songs including "Spanish Harlem", "Isn't She Lovely" and more. 90 SGD. Album introduces the best male ginggers in the audiophile world such as Tony O’Malley, Don Williams, Lee Lessack, Todd Gordon, Brian Lane Green, Monte Procopio Tim Tamashiro, Al Somma, Joe Francis, DK Ibomeka Features the impressive talents of Eva Cassidy, Alison Krauss, Stacey Kent, Jheena Lodwick, Salena Jones and several other well-known Audiophile female vocalists. We've Only Just Begun 5. In 2011 Premium Records present to you, BEST AUDIOPHILE VOICE of this rising star of Canadian jazz described as a sweetened version of Diana Krall. Out of all the audiophile headphones we tested, we found these to be the best bass headphones. Our primary goal is insightful discussion of equipment, sources, music, and audio concepts. Thề loại: Vocal Jazz. xem thêm. To start ID: (155000) Audiophile - LP RCA / Analogue Productions LSC 6094 (Classical) USA Sealed 2017 Foil Numbered, Limited Edition 2LP 200gm HQ Stereo Reissue Housed In A Heavy-Duty Gatefold Cover. Independent reviews help you discover the best narrators, great listening, and spoken word programs worth your listening time. Tags: newarrivals, premiumrecord. Find low everyday prices and buy online for delivery or in-store pick-up. Art Tatum audiophile audiophile cd audiophile shop audio shop Avalon Best audiophile voices collection best sound blues Blues Brothers buy instruction & contact Cafe del Mar canon Carol Kidd Choreography clarinet Classical Classical, Opera, Ethnic music Coltrane Plays The Blues Concorde cpop Enya Ethnic music free gate Gary B-Step Into The VA - Best Audiophile Voices (Collection) (lossless, 1993-2011) gratis y . Emi Fujita - The Rose 03. Various Artists About Best Audiophile Voices, Vol. We talk all audiobooks, all the time. The recording was very well done and the selections emphasize tracks that bring out the best in the artists. Vendor Genre. 1 –Salena Jones You Don’t Bring Me Flowers 2 –Jane Duboc Lady Jane 3 –Tim Tamashiro The Way You Look. Premium Records proudly presents Audiophile Voices, Volume 1. 90. cue), lossless 347. 2. This is the last digital album in the immortal three-CD set of the audiophile world, Red Hot Audiophile 2010 includes 14 jazz vocal songs selected from the best songs, t he album is made on SACD high quality format . Vincent - Sarah Morrau 03. Best Audiophile Voices Selection is the 1st in this collection featuring the talents of such well-known female vocalists as Emi Fujita, Eva Cassidy, Alison Krauss, Stacey Kent, Jheena Lodwick and many more…. 63MB. Shop with confidence. Several of these are unfamiliar to Album Best Audiophile Voices VI tập hợp những giọng ca xuất sắc nhất của dòng âm thanh audiophile như Emi Fujita, Eva Cassidy, Rebecca Pidgeo, Phát hành năm 2010 bởi Premium Records. Playing this on a quiet afternoon or a very calm and relaxing Sunday evening is probably one of the best thing I’ve done to our speakers and players. $ 23. That makes me a bit sad and brings the notion of my being in the late innings of my life’s game clearly into focus. So Nice - Stacey Kent & Jim Tomlinson 04. 0. 4 ARTMAGEDDON - Igan D’Bayan (The Philippine Star) - August 29, 2020 - 12:00am Well, I lied. With her rich contralto voice and smooth, soulful phrasing, Jean is truly a jazz singer's, jazz si Buy "Audiophile Female Voices 2008" at YesAsia. This would be a good time to introduce a new album I’ve used throughout my critical listening sessions with the Living Voice speakers. To make this album, we chose best songs from thousands of songs to produce this hi-end album, which is absolute a hard work, and can be called the Hope Project of beautiful sound, the best music project. 01. Our company engages in the distribution of high quality Chúc mừng bạn đã thêm playlist Jazz Audiophile Voices thành công Vui lòng đăng nhập trước khi thêm vào playlist! Một Album nhạc Jazz Vocal tuyệt hay được thu âm theo chuẩn Audiophile. Year Of Release: 2009. The Look Of Love - Saskia Bruin 02. V. Quality: FLAC (image+. Fields of Gold 3. This is the last digital album in the immortal three-CD set of the audiophile world, Red Hot Audiophile 2010 includes 14 jazz vocal songs selected from the best songs, t he album is made on SACD high quality format Best Audiophile Voices VII: Various Artists: Album + Compilation: 1: Series information Type: Release group series Ordering Type: Automatic. Availability: Out Of Stock. HDtracks is a high-resolution music platform for music lovers to download their favorite tracks in master studio quality. Mời các bạn cùng thưởng thức. Va best audiophile voices vii 2011 vocal jazz flac tracks . Marisa - Dave's True Story 08. Sennheiser Orpheus. 1993-2011 7CD Burmester II. The finest recordings of the songs again from most beautiful female voices. Focal Stellia. Marianna Leporace-If 05. 6 9. Best of Audiophile Voices - Selection - K2HD - CD NEU. RSC Master Gen 2 / The Audiophile Voice. Song For The Journey - Tish Hinojosa 08. AUDIOPHILE ACOUSTIC FEMALE VOICES : CD 24Bit 192 KHz Remastering 24bit / 192 KHz Remastering - Audiophile RecordingTotal of 14 tracks in 1 CD, packaged in an Uni. What the World Needs Now is Love - Stacey Kent 06. The 4th collection in the Best Audiophile Voices series brings you the impressive vocal talents of Stacey Kent, Jheena Lodwick, Salena Jones, Jean Frye Sidwell and many more well-known female audiophile artists. cue,log,scans) Total Time: 64:42, 74:29. 7 2: 1 Factory Radio AM FM 6 CD Player Audiophile Compatible With 2006 Ford 9. ly/2vFG9MX By : Audiophile Hobbies. . Greatest Audiophile Voices (close-mic'd female vocals), from the album "Greatest Audiophile Voices" Vol: 1 - 2 - 3 - 4 On YouTube. Various - Best Audiophile Voices VII (2011) [PR27953] 347. Fields Of Gold Emi Fujita. ในแสงเทียน (The candlelight) - บี๋ คณาคำ 4. As dedicated audiophiles ourselves we care about system synergy and realize that cables and accessories can make a vast difference to the listening pleasure from your hi-fi system and the picture quality of your AV sources. Total Size: 888 mb. 1 (JVCXR7901), Best Audiophile Voices Vol. The 25 Ultimate Audiophile Speakers of All Time We picked the 25 absolute best audiophile speakers over $5,000. Don't It Make My Brown Eyes Blue - Michelle Tse 07. Listen to high quality music at www. If - Marianna Leporace 5. It’s the Best Audiophile Voices Selection. Perhaps love-Jheena Lodwick 05. 73. Jeni Fleming Acoustic Trio - Time View credits, reviews, tracks and shop for the 2006 CD release of "Best Audiophile Voices - Selection" on Discogs. Emi Fujita - Desperado (3:31) 2. With more artists recording in High-Res Audio formats every day, you can be sure that you’ll find many audiophile songs to add to your music library. Showcasing sublime audiophile quality performances from such renown female vocalists as Noon, Emi Fujita, Stacey Kent, Salena Jones, Janet Seidel, Emilie-Claire Barlow, Eva Cassidy, Lee Lesack, Susan Egan, Marianna Leporace, Roberta Gambarini, Jheena Lodwick, Marcela, Kimber Manning and Ilona Knopfler. 01. This is the fourth cut from the album Audiophile Voices 2. Audeze LCD-4. Voices Of Love – the finest recordings of the songs of love from the most beautiful female voices. Susannah Mccorkle - Someone To Watch Over Me 07. I Will - Tiffany Ting 03. 5 This Best Audiophile Voices, Vol. Best Audiophile Voices Vol. On this page, find insightful posts on the day's most relevant topics when it comes to Audiophile Music. Alison Krauss-Gravity 07. Lady Jane - Jane Duboc 3. The Living Voice R25a is the result of a major crossover re-design, one that evolved from 25 years of constant refinement within the line. 90 SGD 10 Thai audiophile female voices by Various Artists, released 19 June 2015 1. $49. USD$55. 0. Alison Krauss-It Wouldn't Have Made a Difference. Desperado-Emi Fujita 02. They got four versions of this but I only have the first one. Jheena Lodwick-A Child Is Best Audiophile Voices Vol. Add to Cart Best Audiophile Voices (number: 6) (order: 6) Release information Barcode: 3365715279422 Format: CD Length: 59:25 Additional details Type: Album + Compilation Status Various Artists – Chesky Records Audiophile Tribute to Miles Davis 2018 [24bit-96kHz] Various Artists – The Best Of Folk Songs 2016 [SACD-R][OF] Various Artists – The Absolute Sound (TAS) 2019 (2020) [Wav+cue] Julienne Taylor – The Heart Within 2011 [24bit-96kHz] Taylor Swift – Fearless 2008 (Japan 2009) [Flac+cue] A Star Is Born 2018 (Original Motion Picture Soundtrack) [24bit-48kHz The 2nd collection of Best Audiophile Voices features an assortment of such beloved Audiophile female vocalists as Alison Krauss, Eva Cassidy, Claire Martin, Etta Jones, Salena Jones, Jean Frye Sidwell and a few others. Alfie 6. Fostex TH900 Mk2. 3,,CD2,,(14),,192,,kbps,,,,4. . Some audiophiles even have copies of analog master tapes for their systems. You Don't Bring Me Flowers - Salena Jones 02. If - Marianna Leporace 05. Guided By Voices’ New Mirrored Aztec Album on Vinyl, Tidal and Qobuz Streams. 00 Red Hot Audiophile 2010 album released by Master Music producer in 2010. Equipment Review Archives Turntables, Cartridges, Etc Digital Source Do It Yourself (DIY) Preamplifiers Amplifiers Cables, Wires, Etc Loudspeakers/ Monitors Headphones, IEMs, Tweaks, Etc Ultra High-End Audio Reviews . Audiophile Male Voices released in 2009 by Premium Records. Showcasing some of the deepest male singers and most amazing voices of the world. Album Best Audiophile Voices I tập hợp những giọng ca xuất sắc nhất của dòng âm thanh audiophile như Jane Monheit, Alison, Stacey Kent Phát hành năm 2003 bởi Premium Records . Best Audiophile Voices VII (2011) is a 2011 compilation made for a compilation CD dedicated to audiophile mixes. The audiophile journey goes far beyond the faithful reproduction of sound. tt. $3. The Rose - Emi Fujita 04. 03. The selection of the 12 tracks on this album will bring the listener an eclectic mix of familiar and evocative songs. … The Frank Zappa Documentary Part I: The Blu-ray Disc Some of you may remember that last year I was… Ideal Room Size Dimensions and Ratios for Audiophile… Dennis Foley discusses the idea of ideal room dimensions --… March 31, 2021 • Audiophile Music, Audiophile, Audiophile News, Blu-ray Disc, News I see now where I screwed up as a mid-1970s teenager in my appreciation for Lynyrd Skynyrd. 2007 The Greatest Hit Song (China Various Artists) 77. 51MB. Recorded and mastered using Octave Records’ DSDDirect Mastered 192kHz/24-bit process and 96kHz/24-bit and 44. Lady Jane - Jane Duboc 03. 1 (2018) Pop Pop Factory 10 Anniversary. Various Artists-Best Audiophile Voices Vol. 99 Was Save. Pink Floyd. Beauty And The Beast Vocals: Susan Osborn 03. A collection of sultry female vocalists featuring a repertoire of sophisticated styles. audiophilemusic. 3-Best Audiophile Voices [CD] 336771527864 Music Best Audiophile Voices - Vol. An audiophile seeks to reproduce the sound of a live musical performance, typically in a room with good Best Audiophile Voices IV CD 1. Voices are conveyed meticulously on this disc against an airy, noiseless background that ushers a wealth of microdynamics to come forth to the listener. Over The Rainbow - Jane Monheit 02. We chose the best sound and recording to satisfy your captious ears. The selection of the 14 tracks on this album will bring the listener an eclectic mix of familiar and evocative songs. Price Match Guarantee. Ave Maria:Madona Choral 02. With her rich contralto voice and smooth, soulful phrasing, Jean is truly a jazz singer's, jazz si Best Audiophile Voices. Share 3. Stax SR007 MK2 . T. Doing so is an achievement of perfect equilibrium—neither adding to nor detracting from a source of the highest integrity. Voice 973/778-4882. . What A Wonderful World - Eva Cassidy 03. An amazing jazz singer on GRP records. 80 jul 7, 2019 - best voices high quality music - audiophile music collection 2018 - nbr musicbest voices high quality music - audiophile music collection 2018 - nbr musicbes Audiophile Components Inc. 0 beta 1 from 15. of Discs: 1 EAN: 3367715278641 Album Tracks 1. Jheena Lodwick - Perhaps Love (4:55) 7. rút gọn. Pioneer SE-Master 1. 1 9. Find album reviews, stream songs, credits and award information for Best Audiophile Voices VII - Various Artists on AllMusic Best Audiophile Voices Vol. Too Young To Go Steady / Jazz Audiophile Voices - 5:41 06. II - Audiophile Female Voices Genre: Jazz-Pop, Vocal Jazz Label: Accustic Arts Audiophile Recordings Released: 2010 Quality: FLAC (image+. Time After Time - Jeni . Can't Take My Eyes Off You / Jazz Audiophile Voices - 6:15 08. Исполнитель: VA Название: Best Of Jazz Audiophile Voices Лейбл: EQ Music Pte Ltd Год: 2011 Жанр: Jazz, Vocal Jazz Audiophile Bossa Voices : 15 Brazilian Love Tracks CD 24bit / 192 Khz Remastering No. RayF 26. USD$75. 17MB: 0: 0: 3 days ago: Download; Magnet link. 0. Jazz, Pop, Rock. 00 Audiophile Voices Volume 1 is a collection of sultry female vocalists featuring a repertoire of sophisticated styles. Best Audiophile Voices - Selection Various. Jheena Lodwick - A Child Is Born (3:43) 6. Volume 2, Issue 2 - January, 1996 by Joel Schumer Audiophile Music includes music on Compact Disc, SACD, Blu-ray, Vinyl, Download, HD Music Download and beyond. This imported cd from the Premium label contains the Best the 'Best of Audiophile Voices' Volumes 1-4. 15 wonderful tracks from female vocalists famous for their music. Farther Along Vocals: Randy Travis 04. For Hifi lovers and audiophiles alike. Best Audiophile Voices II (2003): 01. Audeze LCD-2 Closed Back. Premium Records proudly presents Best Audiophile Voices, Volume 6 — a collection of sultry female vocalists featuring a repertoire of sophisticated styles. What the world needs now is love-Stacey Kent 04. The Audiophile Man covers both hi-fi and music via news, reviews, features, interviews, buyer's guides and more. I Don't Want To Miss A Thing - Salena Jones 06. cue . Wind Beneath My Wings - Jean Frye Sidwell 09. UPC. November 2010 EAC extraction logfile from 24. You don't bring me flowers-Salena Jones 07. The 25 Ultimate Audiophile Speakers of All Time We picked the 25 absolute best audiophile speakers over $5,000. My Heart And I Vocals: Charlotte Rampling 07. W elcome to the audiophile voice online! the audiophile voice claims to be the world's best Hi-Fi magazine " by audiophiles for audiophiles". Album: Uncompressed World Vol. Sennheiser HD820. Alison Krauss And Natalie Mac Master - Get Me Through December [06:30]02. Best Audiophile Voices II 412. 3. The selection of tracks in the album will bring to the listener an eclectic mix of familiar and evocative songs. The Audiophile Voice is located at 605 Valley Rd Ste 5 in Montclair, NJ - Essex County and is a business listed in the categories Periodical Printing & Publishing and Publishers Magazines & Periodicals and offers Subscriptions and Magazines. The selection of the 15 tracks on this album will bring the listener Best Audiophile Voices for relaxing #10Tracklist:Track 01 00:00:09:06 00:05:10:04Jeni Fleming Acoustic Trio - Time After Time Track 02 Audiophile Female Voices - Greatest Vocal for Test High EndWebsite: https://audiophilemusic. Tennessee Waltz - Rosanne 05. Mời các bạn cùng thưởng thức. Fields Of Gold / Jazz Audiophile Voices - 4:43 11. View credits, reviews, tracks and shop for the 2004 CD release of "Best Audiophile Voices III" on Discogs. VA - Best Audiophile Voices VII (2011) {Premium} Music. com with Free International Shipping! Here you can find products of Various Artists,, Rock In Music & popular Western / World Music. Song For The Journey - Tish Hinojosa 09. So Nice - Stacey Kent & Jim Tomlinson 05. Pin. TV . Vincent [Live] 2. Best Audiophile Voices - Vol. 3 >>> DOWNLOAD 8fbd390d85 MP3,,,,Various,,-,,Best,,Audiophile,,Chinese,,Voices,,Vol. Free shipping . 2014 - Best Audiophile Vocal. Over the IvanYolo » Hi-Fi Music » 10 Best Audiophile Voices Selection of 2017. Perhaps Love - Jheena Lodwick 07. The Way You Look Tonight - Tim Tamashiro 04. A collection of sultry female vocalists featuring a repertoire of sophisticated styles. Her beautiful voice can be heard on many world-wide commercials and several multi-artist albums recorded in Hong Kong. , Salena Jones, Jean Frye Sidwell and many more. Acoustic Audiophile Voices By Julian Schiemann. An audiophile is a person who is enthusiastic about high-fidelity sound reproduction. Featuring Stacey Kent, Susan Wong, Jacqui Naylor, Cheryl Bentyne, Woong San, Julienne Taylor, Chantal Chamberland, Chlara, Katie Melua. 5—"A Funny Thing Happy Thing Happened on the Way to the Internet" & "Arthur Rubenstein Collection" PBN Montana XP Speakers DENON DVD 3910, Audiophile DVD-CD Player (NEW) 9. Genre: Vocal Jazz. $ 23. Isn't She Lovely - Livingston Premium Records proudly presents Audiophile Voices, Volume 1. 10. @equilibrium. Discover more music, concerts, videos, and pictures with the largest catalogue online at Last. The selection of the 12 tracks on this album will bring the listener an eclectic mix of familiar and evocative songs. The 5th collection in the Best Audiophile Voices series brings you the impressive vocal talents of Eva Cassidy, Stacey Kent, Ilona Knopfler, Jheena Lodwick, Salena Jones and many more well-known female audiophile artists. . Best Audiophile Voices Selection 2006 VA – Premium Records Acoustic Audiophile Voices (2004 Premium Records) Various Artist Come Away With Me – Norah Jones 1 (2012, SACD) – Analogue Pro The 3rd collection in the Best Audiophile Voices series brings you the impressive vocal talents of Alison Krauss, Sara K. TAS 1998 - The Absolute Sound 81. Discover more music, concerts, videos, and pictures with the largest catalogue online at Last. Genres (none) Other tags Listen free to Various Artists – Best Audiophile Voices, Volume VII. 1 Various. Saving the Best for Last? Audiophile Dream Realization. Hifiman Ananda r/audiophile is a subreddit for the pursuit of quality audio reproduction of all forms, budgets, and sizes of speakers. of Disc: 1 CD Cataloge No. Noon - 500 Miles [04:4. Get Me Through December - Alison Krauss & Natalie Mac Master 02. Sennheiser HD800s. Let It Be Me - Irene Au 09. 3 Shares. Original RSC Master ('93)/ The Audiophile Voice. What A Wonderful World – Eva Cassidy. No. It wouldn't Have Made A Difference - Alison Krauss 03. 02MB. . 2 - Various Artists on AllMusic Listen free to Various Artists – Best Audiophile Voices. xem thêm. - Vincent 02. For the better part of the last 50 years—from the time I was a teenager—I’ve always thought about getting new speakers. VA - Best Of Jazz Audiophile Voices (2011) (2CD) [FLAC] 734. Gravity - Alison Krauss & Union Station 7. Listen to Audiophile by Various Artists on Apple Music. Welcome to my official blog. What The World Needs Now Is Love - Stacey Kent 6. m 4. The Vipers - Don't Know Why (4:04) 3. Sara K. Album Best Audiophile Voices III tập hợp những giọng ca xuất sắc nhất của dòng âm thanh audiophile như Sara K. 95KB. Marisa - Dave True Story 07. The Best Audiophile Headphones for 2021. This is the last digital album in the immortal three-CD set of the audiophile world, Red Hot Audiophile 2010 includes 14 jazz vocal songs selected from the best songs, t he album is made on SACD high quality format The third volume in the Premium label's Best Audiophile Voices compilations includes demonstration performances by Sara K ("Vincent"), Cheryl Bentyne ("Killing Me Softly With His Song"), Jean Frye Sidwell ("Alfie"), Alison Krauss ("When You Say Nothing At All"), Jheena Lodwick ("Morning Has Broken") and Rebecca Pidgeon ("Auld Lange Syne/ Bring It On Home To Me"). was founded in January 16, 1981. A collection of 12 tracks including selections from such vocalists as Tim Tamashiro, Salena Jones, Jheena Lodwick, Stacey Kent, Jean Frye Sidwell, and more! This imported CD from the Premium label contains a dozen wonderful tracks from vocalists famous for their music. wav" WAVE TRACK 01 AUDIO TITLE "Emi Fujita / Desperado" PERFORMER "Premium Records" INDEX 01 00:00:00 TRACK 02 AUDIO TITLE "Eva Cassidy / What a wonderful world" PERFORMER "Premium Records" INDEX 00 03:30:05 Explore great audio book listening with AudioFile recommendations and reviews. Aimed at the beginner and expert alike, the site has an active Comments section where advice is both requested and shared. We start 2010 on a high wit vocal jazz She is a brilliant audiophile talent from the Far East. 99 + $2. VARIOUS ARTISTS - BEST AUDIOPHILE VOICES SELECTION SEALED NEW CD. Beyerdynamic T1 3rd Gen. See more ideas about audiophile, speaker design, hifi. fm. 00:00 Only You2. The 4th collection in the Best Audiophile Voices series brings you the impressive vocal talents of Stacey Kent, Jheena Lodwick, Salena Jones, Jean Frye Sidwell and many more well-known female audiophile artists. Klara Speaker Cable / Home Theater: Reprinted from: The Audiophile Voice. You've Got A Friend - Stacey Kent 05. Jazz, Pop/Rock. The Very Thought Of You - Al Somma. The second collection of Best Audiophile Voices features an assortment of such beloved audiophile female vocalists as Alison Krauss, Eva Cassidy, Claire Martin, Etta Jones, Salena Jones, Jean Frye Sidwell and a few others. r/audiophile is a subreddit for the pursuit of quality audio reproduction of all forms, budgets, and sizes of speakers. About IvanYolo. ioSubscribe https://bit. O. best-audiophile-voices-vol. 3365715279750. 1. 1 (1993) FLAC 專輯中文名:爵士紅伶1專輯英文名:Best Audiophile Voices I專輯藝人:Various Artists Tracklist 01. Videos Enjoy the Music. Audiophile album lists are a fun way to discover new albums, but they can be rather limited, and there is so much more beautiful music out there for you to discover. Hi-Q MP3 Voice Recorder (Free) Audiophile. AUDIOPHILE FEMALE VOICES 2 [MQGCD] 01. Write a 05. 1kHz/16-bit PCM, The Audiophile Reference Disc was produced using high Audiophile • Sony ICD-TX800 Digital Voice Recorder. O. If you love th… read more Tracklist 01. Zenyatta Mondatta The Police. Hanne Boel - Into VA - Jazz Audiophile Voices (2009) 320kbps 01. WStacey Kent-What The World Need Now Is Love 06. 4 8. fm. Fly away-Corrinne May 06. Audiophile Female Voices Vol. Voice Cloning. The CD features known pop songs but covered by artists from Asia. In addition to familiar Premium artists, this compilation features Todd Gordon, Joe Francis, Tony DeSare, and rising stars DK Ibomeka and Sachal Vasandani - all appearing for the first time on Premium Records. time 05 00 24. Jane Monheit - Over The Rainbow (6:38) 3. Rosemary Hans - Just The Way You Are (5:09) 4. Hifiman HE1000SE. Tammy - Bonnie Lam 02. Usually ship within 1-2 business days. Lisa Fredrik - Don't It Make My Brown Eyes Blue (3:35) 5. The Way We Were - Susan Wong 04. Save. Stardust Vocals: Nat King Cole 06. 1. Contains 14 tracks including covers of such well known songs as We've Just Begun , Alfie and But Beautiful etc. Jane Monheit-Over the Rainbow. Blame It On My Youth - Emilie-Claire Barlow 08. It Wouldn’t Have Made A Difference – Alison Krauss. Emi Fujita - Desperado (3:33) 02. Now $14. The selection of tracks includes and eclectic mix of familiar and evocative songs. $ 52. Collection. Fields of gold-Eva Cassidy 08. Eva Cassidy - What A Wonderful World (5:06) 4. Is this an audiophile voice recorder? Don't start stretching the category here, MD. : PR27954 Official Release by: 2011 Premium Records Marketed & Distributed by top2music. 49. 2. The sound engineers at GRP know how to record this amazing voice and the acoustic instruments surrounding her. We now celebrate the grandeur of male voices with a showcase of gentlemen crooners - "Best Audiophile Male Voices". VA - Best Audiophile Male Voices (2009) 391. Description. Album Best Audiophile Voices VII tập hợp những giọng ca xuất sắc nhất của dòng âm thanh audiophile như Emi Fujita, Eva Cassidy, Jheena Lodwic, Phát hành năm 2011 bởi Premium Records. Discussion. View credits, reviews, tracks and shop for the 2004 CD release of "Acoustic Audiophile Voices" on Discogs. Audiophile Female Vocals - Voices of Love (CD) Voices Of Love – the finest recordings of the songs of love from the most beautiful female voices. (3:45) 2. If you are a part audiophile and part bass lover, the Sony MDR-XB500 Extra Bass Headphones can be a great buy. Mời các bạn cùng thưởng thức. Release:2010-04-18 Premium Records’ flagship product, “Best Audiophile Voices”, has come to be synonymous with memorable tunes, quality vocals, smooth arrangements and superior recordings. 95 (plus postage) Sample Issue (editor's choice) FREE! P. USD$55. January 2, 2017. " Vol. of Disc: 1 CD Cataloge No. 9 9. Someone To Watch Over Me / Jazz Audiophile Voices - 4:17 07. com CD Casing with slipcase 01. 90 SGD Red Hot Audiophile 2010 album released by Master Music producer in 2010. Va - Best Audiophile Voices Vii 2011. Best Audiophile Voices V CD. Best Audiophile Voices IV CD. Audiophile voices are synthesized from disc The Stockfisch DMM-CD/SACD, shown by artists David Munyon, David Roth, Ewen Carruthers, Steven Strauss, Paul O’Brien, Duo Blance, Carl Cleves, Parissa Bouas, Mckinley Black… Hi end audiophile test - Audiophile music collection 2019 Find album reviews, stream songs, credits and award information for Best Audiophile Voices VI - Various Artists on AllMusic Find album reviews, stream songs, credits and award information for Best Audiophile Voices Selection - Various Artists on AllMusic Find album reviews, stream songs, credits and award information for Best Audiophile Voices, Vol. The true heart of The Audiophile Voice by Rick Taylor MARIGO AUDIO LAB VTS TUNING DOTS. Then, TITLE "Jazz Audiophile Voices (Blu-Spec CD)" FILE "Various - Jazz Audiophile Voices (Blu-Spec CD). $55. 31 shipping . The selection of the 8 tracks on this album will bring the listener an eclectic mix of familiar and evocative songs. 6 MB. The 2nd collection of Best Audiophile Voices features an assortment of such beloved Audiophile female vocalists as Alison Krauss, Eva Cassidy, Claire Martin, Etta Jones, Salena Jones, Jean Frye Sidwell and a few others. A great disc to show off your system! Audio Inferno: Or how I learned to stop worrying and love ‘Best Audiophile Voices Vol. audiophile voices